Звездные воины: Путь сквозь Вселенную / AniMen: Triton Force (Керр Ху / Xu Kerr) [2010, мультфильм, фантастика, приключения, DVD5] R5 «New Dream media», «Lizard Cinema Trade»

СКАЧАТЬ

Рейтинг:

Сказали спасибо: 93

Прошел проверку на вирусы:

Звездные воины: Путь сквозь Вселенную / AniMen: Triton Force
«An Adventure as big as the UniverseСтрана: США, Китай Жанр: мультфильм, фантастика, приключения Продолжительность: 01:32:50 Год выпуска: 2010 Мировая премьера: 1 июня 2010 Российская премьера: 24 марта 2011, «Top Film Distribution», «Приор Дистрибьюшн» 3D Дата выхода DVD: 14 апреля 2011, «New Dream media», «Lizard Cinema Trade» Перевод: Профессиональный (дублированный) [Лицензия] Русские субтитры: нет Оригинальная аудиодорожка: английский
Режиссёр: Керр Ху / Xu Kerr
Роли озвучивали: Александр Погребняк, Анатолий Пашнин, Владимир Терещук, Михаил Тишин
Описание: Тысячи лет назад племя космических кочевников обнаружило в глубинах Вселенной мемо-кристаллы, хранящие знания могущественной древней цивилизации. С их помощью Блатарианцы овладели вековыми секретами ведения войны, изменили свой генетический код и стали непобедимыми. Их власть распространилась по Галактике со скоростью пожара. Беспощаднейший из правителей племени Лорд Комо встал во главе разрушительной империи. Они поработили практически все известные цивилизации во Вселенной. Лишь немногие из рода человеческого выжили в этих войнах. Маленький отряд смельчаков, словно восставших из пепла, решил вновь сразиться с лордом и его непобедимыми убийцами. Но в решающей битве с более развитой и могущественной расой им не победить без информации с легендарных кристаллов, путь к которым пролегает через всю Вселенную и полон смертельных опасностей…
Доп. материалы: нет
Релиз группы:
Качество: DVD5 R5 Формат: DVD-Video Видео кодек: MPEG2 Аудио кодек: AC3 Видео: PAL 16:9 (720x576(0.435)) MPEG Video,25,000 кадр/сек, 4512 Кбит/сек Аудио #1: Russian (Dolby AC3, 6 ch) 448 Кбит/сек, 48,0 КГц Аудио #2: English (Dolby AC3, 6 ch) 384 Кбит/сек, 48,0 КГц
Title: F Size: 4.27 Gb ( 4 481 466 KBytes ) - DVD-5 Enabled regions: 1, 2, 3, 4, 5, 6, 7, 8
VTS_01 : Play Length: 01:32:50 Video: PAL 16:9 (720x576) VBR, Auto Letterboxed Audio: Russian (Dolby AC3, 6 ch) English (Dolby AC3, 6 ch) Общее Полное имя : E:/Новинки 2011/Zvezdnie.voyni.Put.skvoz.vselennuyu.2010.DVD5/VIDEO_TS/VTS011.VOB Формат : MPEG-PS Размер файла : 1024 Мбайт Продолжительность : 26 м. Общий поток : 5453 Кбит/сек
Видео Идентификатор : 224 (0xE0) Формат : MPEG Video Версия формата : Version 2 Профиль формата : Main@Main Параметр BVOP формата : Да Параметр матрицы формата : По умолчанию Продолжительность : 26 м. Вид битрейта : Переменный Битрейт : 4512 Кбит/сек Номинальный битрейт : 8000 Кбит/сек Ширина : 720 пикс. Высота : 576 пикс. Соотношение сторон : 16:9 Частота кадров : 25,000 кадр/сек Стандарт вещания : PAL Цветовое пространство : YUV Подвыборка цветности : 4:2:0 Битовая глубина : 8 бит Тип развёртки : Чересстрочная Порядок развёртки : Верхнее поле первое Метод сжатия : С потерями Бит/(Пиксели*Кадры) : 0.435 Размер потока : 847 Мбайт (83%)
Аудио #1 Идентификатор : 189 (0xBD)-128 (0x80) Формат : AC-3 Формат/Информация : Audio Coding 3 Расширение режима : CM (complete main) Режим смешивания : DVD-Video Продолжительность : 26 м. Вид битрейта : Постоянный Битрейт : 448 Кбит/сек Канал(ы) : 6 канала(ов) Расположение каналов : Front: L C R, Side: L R, LFE Частота : 48,0 КГц Битовая глубина : 16 бит Метод сжатия : С потерями Размер потока : 84,1 Мбайт (8%)
Аудио #2 Идентификатор : 189 (0xBD)-129 (0x81) Формат : AC-3 Формат/Информация : Audio Coding 3 Расширение режима : CM (complete main) Режим смешивания : DVD-Video Продолжительность : 26 м. Вид битрейта : Постоянный Битрейт : 384 Кбит/сек Канал(ы) : 6 канала(ов) Расположение каналов : Front: L C R, Side: L R, LFE Частота : 48,0 КГц Битовая глубина : 16 бит Метод сжатия : С потерями Размер потока : 72,1 Мбайт (7%)

Вместе с этим искали

  1. Баштовая Ксения, Иванова Виктория. Темный принц 02. Маленьких все обидеть норовят!
  2. Управление проектом стратегических изменений организации
  3. Сверхъестественное / Supernatural [08x01-11] (2012) WEB-DLRip | LostFilm
  4. Непутёвый ученик в Школе Магии / Посредственность из школы магов / Mahouka Koukou no Rettousei [02 из 26] (2014) HDTVRip
  5. Ходячие мертвецы / The Walking Dead [Сезон 1] (2010) BDRip